Jump to content

Gamer (2009) 4K - 2160p HDR 10bit - HEVC - Multi Original Audios [ English (DD5.1 - 320Kbps) + Telugu (DD5.1 - 192Kbps) + Tamil (DD5.1 - 192Kbps) + Hindi (DD5.1 - 192Kbps)] - AC3 - ESub - [[T∆M¥]].mkv - 2.8GB


tomy100
 Share

Recommended Posts

71BGh4s+E1L._AC_SL1500_.jpg

 

WE ARE NOW AVAILABLE ON TELEGRAM - JOIN OUR Group

 

MediainFo

General

Complete name : Gamer (2009) 4K - 2160p HDR 10bit - HEVC - Multi Original Audios [ English + Telugu + Tamil + Hindi] - AC3 - ESub - [[T∆M¥]].mkv

Format : Matroska

Format version : Version 4

File size : 2.86 GiB

Duration : 1 h 34 min

Overall bit rate : 4 310 kb/s

Movie name : Encoder - [[T∆M¥]]

Writing application : mkvedit android v1.6

Writing library : libmkv arm64-v8a v1.6 / - [[T∆M¥]]

Attachments : Encoder - [[T∆M¥]].jpg

 

Video

ID : 1

Format : HEVC

Format/Info : High Efficiency Video Coding

Format profile : Main 10

Format level : 5

Format tier : High

Codec ID : V_MPEGH/ISO/HEVC

Duration : 1 h 34 min

Bit rate : 3 411 kb/s

Width : 3 840 pixels

Height : 2 072 pixels

Display aspect ratio : 1.85:1

Frame rate mode : Constant

Frame rate : 23.976 FPS

Color space : YUV

Chroma subsampling : 4:2:0

Bit depth : 10 bits

Bits/(Pixel*Frame) : 0.018

Stream size : 2.26 GiB (79%)

Title : By Encoder - [[T∆M¥]]

Language : English

Default : Yes

Forced : No

Color range : Full

Color primaries : BT.2020

Transfer characteristics : PQ

Matrix coefficients : BT.2020 non-constant

 

Audio #1

ID : 2

Format : AC-3

Format/Info : Audio Coding 3

Commercial name : Dolby Digital

Format settings : Big

Codec ID : A_AC3

Duration : 1 h 34 min

Bit rate mode : Constant

Bit rate : 320 kb/s

Channel(s) : 6 channels

Channel layout : L R C LFE Ls Rs

Sampling rate : 48.0 kHz

Frame rate : 31.250 FPS (1536 SPF)

Compression mode : Lossy

Delay relative to video : 345 ms

Stream size : 217 MiB (7%)

Title : English By Encoder - [[T∆M¥]]

Language : English

Default : Yes

Forced : No

 

Audio #2

ID : 3

Format : AC-3

Format/Info : Audio Coding 3

Commercial name : Dolby Digital

Format settings : Big

Codec ID : A_AC3

Duration : 1 h 34 min

Bit rate mode : Constant

Bit rate : 192 kb/s

Channel(s) : 6 channels

Channel layout : L R C LFE Ls Rs

Sampling rate : 48.0 kHz

Frame rate : 31.250 FPS (1536 SPF)

Compression mode : Lossy

Delay relative to video : -350 ms

Stream size : 130 MiB (4%)

Title : Gamer (2009) Telugu By Encoder - [[T∆M¥]]

Language : Telugu

Default : Yes

Forced : No

 

Audio #3

ID : 4

Format : AC-3

Format/Info : Audio Coding 3

Commercial name : Dolby Digital

Format settings : Big

Codec ID : A_AC3

Duration : 1 h 34 min

Bit rate mode : Constant

Bit rate : 192 kb/s

Channel(s) : 6 channels

Channel layout : L R C LFE Ls Rs

Sampling rate : 48.0 kHz

Frame rate : 31.250 FPS (1536 SPF)

Compression mode : Lossy

Delay relative to video : -350 ms

Stream size : 130 MiB (4%)

Title : Gamer (2009) Tamil By Encoder - [[T∆M¥]]

Language : Tamil

Default : Yes

Forced : No

 

Audio #4

ID : 5

Format : AC-3

Format/Info : Audio Coding 3

Commercial name : Dolby Digital

Format settings : Big

Codec ID : A_AC3

Duration : 1 h 34 min

Bit rate mode : Constant

Bit rate : 192 kb/s

Channel(s) : 6 channels

Channel layout : L R C LFE Ls Rs

Sampling rate : 48.0 kHz

Frame rate : 31.250 FPS (1536 SPF)

Compression mode : Lossy

Delay relative to video : -350 ms

Stream size : 130 MiB (4%)

Title : Gamer (2009) Hindi By Encoder - [[T∆M¥]]

Language : Hindi

Default : Yes

Forced : No

 

Text

ID : 6

Format : ASS

Codec ID : S_TEXT/ASS

Duration : 1 h 23 min

Bit rate : 79 b/s

Frame rate : 0.171 FPS

Count of elements : 860

Compression mode : Lossless

Stream size : 48.6 KiB (0%)

Title : English By Encoder - [[T∆M¥]]

Language : English

Default : No

Forced : No

 

Menu

_00_00_00_000 : :Chapitre 01

_00_04_52_292 : :Chapitre 02

_00_08_12_492 : :Chapitre 03

_00_16_31_657 : :Chapitre 04

_00_20_10_543 : :Chapitre 05

_00_27_36_321 : :Chapitre 06

_00_33_28_673 : :Chapitre 07

_00_38_20_965 : :Chapitre 08

_00_42_07_859 : :Chapitre 09

_00_45_57_421 : :Chapitre 10

_00_52_41_825 : :Chapitre 11

_00_59_59_596 : :Chapitre 12

_01_02_19_736 : :Chapitre 13

_01_07_41_391 : :Chapitre 14

_01_11_29_619 : :Chapitre 15

_01_19_15_417 : :Chapitre 16

 

1.png2.png3.png4.png

 

black.gif

 

google-drive.jpg

 

Gamer (2009) 4K - 2160p HDR 10bit - HEVC - Multi Original Audios [ English + Telugu + Tamil + Hindi] - AC3 - ESub - [[T∆M¥]].mkv - 2.8GB 

 

Gamer (2009) 4K - 2160p HDR 10bit - HEVC - Multi Original Audios [ English + Telugu + Tamil + Hindi] - AC3 - ESub - [[T∆M¥]].mkv - 2.8GB

 

 

black.gif

 

 

 

 

 

Link to comment
Share on other sites

Guest
Reply to this topic...

×   Pasted as rich text.   Paste as plain text instead

  Only 75 emoji are allowed.

×   Your link has been automatically embedded.   Display as a link instead

×   Your previous content has been restored.   Clear editor

×   You cannot paste images directly. Upload or insert images from URL.

 Share

×
×
  • Create New...